📣 Kanalımızdan limitsiz Mp3, Flac Lossless, Hi-Res, Wav Müzik indirebilirsiniz. right away. Subscribers, subscribers gained, views per day, forwards and other analytics at the Telegram Analytics website. Remember that the artists and studios put a lot of work into making music - purchase music to support them. It is a telegram account which is operated by a program. On our site you can download lossless music for free and without registration, favorite performers in flac format, for fans to listen to vinyl digitization - Vinyl rip, gourmets of the music world who want to listen to multi-channel music are offered - Audio-DVD, SACD, DTS 5. Telegram: Contact @perebins. Liechtenstein based gothic metal band Elis covered the song on their album Griefshire. flac Lineage cd > eac (secure) > flac Location Meadville, PA Shndiscs 2 Source. net Music lossless for lovers of good sound. The Sick Mind media music telegram channel is helping to change your troubled mind to happy. FLAC stands for Free Lossless Audio Codec, an audio format similar to MP3, but lossless, meaning that audio is compressed in FLAC without any loss in quality. Here we look at installing a free small file that will add support for Flac, Ogg, and more. Music connoisseurs relish HD and hi-res audio, but scouring the web for the best streaming and downloading sites can be a pain. (альбомы выкладываются в Telegram и ВКонтакте). Spotybot Bot. Mano, Germano Kuerten - Love in My Way (Uglh Sinedub Mix) 5. Telegram Group is a way to bring many people together. Telegram, the supposedly secure messaging app, has over 100 million users. FLAC Song 🎶 • Calvin Harris - This Is What You Came For ft. 📣 In our channel, you may download Unlimited Mp3, Flac Lossless & Hi-Res, Wav Music! 📣 Grubumuzdan istek yapabilir, böylece bulamadığınız, albüm ve şarkılara ulaşabilirsiniz. Deezer Downloader Download Music from Deezer in full 320Kbps Quality (For Free) This app allows you to search for and download any songs at the highest quality (320kbps). Fall in love with the classic Age of Empires II experience, now with high definition graphics. Planet Emily 4. Telegram by amiina, released 25 November 2016 Includes unlimited streaming via the free Bandcamp app, plus high-quality download in MP3, FLAC and more. FLAC is the format used by Amazon for their HD streaming service. Music bots and audio on Telegram The best online music bots and audio chatbots to download music, audio and discover new albums. The Book 08. AIDS – Deezer Downloader v1. One of the biggest FLAC Telegram channels for today. AIFF, ALAC, FLAC, FLAC Studio surround 5. If you have Telegram, you can view and join Flac Music Download right away. Easy, 320Kbps, flac bot telegram. 966797 CRC32 hash (test run) : CB95DDDD CRC32 hash : CB95DDDD CRC32 hash (skip zero) : 1A0AD8C0 AccurateRip v1 signature : 1682CAF2 AccurateRip v2 signature : 478991A6. Here is the list of best active adult Telegram channels (18+ only). Here we look at installing a free small file that will add support for Flac, Ogg, and more. is VA - The Pop Years 1970-1999 (2009) [FLAC] [DJ. Official site 1gabba - Caine_-_The_Prophecy_(Pro_Mixes)-(TCRECPRO_004)-WEB-FLAC-2019-HS mp3 is Hardstyle Lossless, Web, published 28/06/2020 - 06:13, has working download links, zippy, torrent télécharger descargar herunterladen, Everyday hardstyle & hardcore download mp3 télécharger descargar herunterladen torrent zippy free. Lossless music telegram channel Lossless music telegram channel. me/tgweb/40 Donations: t. 01 (Compilation, 2020) FLAC: 01 - Shiva; tha Supreme - Calmo. rscience2005-04-01. Now music in the Telegram it isn’t only channels, group chats and bots with extensive library, it also the built-in musical player capable to reproduce playlists in the background. Only FLAC, WAV, M4A, AAC, AC3, DTS formats are allowed. Subscribers, subscribers gained, views per day, forwards and other analytics at the Telegram Analytics website. click hear for visit!. Telegram Groups. In-Stock Music Orders Over $49 SHIP FREE Within The Continental U. In Dreams 7. The Education Of A Wandering Man Jamestown Revival: 4. flac Lineage cd > eac (secure) > flac Location Meadville, PA Shndiscs 2 Source. flac 05 - TY1; Dosseh; Capo Plaza - C'est La Vie. Просмотр статистики Telegram-канала "Flac music" - @FlacMix. it - Il punto d'incontro italiano per gli appassionati di informatica e tecnologia. flac 19 - Soul Asylum - String of Pearls. Katy Perry - PRISM (Deluxe) Album Download Qobuz Hi-Res Flac 24bit/44. Tutta la musica di qualsiasi genere in qualità massima (FLAC 1411 kbps). In-Stock Music Orders Over $49 SHIP FREE Within The Continental U. A channel is shown in a general contact list. We can't say that FLAC is the best lossless audio format but it is for sure the popular choice among audiophiles. I was in a Telegram group that shared flac music daily and honestly it was awesome, the most streamlined way of sharing music and it covered a lot of basis of the music I liked, unlike another I found that just had very old, unappealing music to me personally. One of the biggest FLAC Telegram channels for today. It is intended for educational and private use only, and not as a tool for pirating and distributing music! Remember that the artists and studios put a lot of work into making music - purchase music to support them. Jan 04, 2020 · Are you a telegram user? and looking for the best music telegram channel. flac 06 - The Korgis - Everybody's Got to Learn Sometime. Inizia a scaricare i tuoi brani preferiti e sentili senza perdita di qualità!. The HD-Audio Challenge is coming to an end. ¡Compartan el Canal!. Tutta la musica di qualsiasi genere in qualità massima (FLAC 1411 kbps). Electric Octopus "Driving Under The Influence Of Jams" (New Full Album) 2017 (Psychedelic Rock) - Duration: 3:53:24. Q Do any portable MP3 players support music files in the FLAC format? A While popular players such as the Apple iPod and the Microsoft Zune HD do not naturally play files in the open-source FLAC. Download flac lossless music free. 3 Full Specs Visit Site External Download Site. download for more content related with shraddha kapoor like movies,music(flac,wav,itunes,mp3),music video etc. Tamil WAV Songs and Tamil Lossless Songs For Free Download, Latest & Old Movies Uncompressed Music Collection. Aggiungi a Telegram. The Beach 04. Artist: Vinz Vonlanthen Urban Safari Album: Telegram from Mars Released: 1998 Label: Unit Records Genre: Avant-Garde Jazz, Contemporary Jazz Quality: FLAC Bitrate: lossless Total Time: 48:50. Here we look at installing a free small file that will add support for Flac, Ogg, and more. In this video, I show you how to download music online for free. FLAC Music Album Free. If you have Telegram, you can view and join AnimeFlacMusic right away. The files are downloaded with high quality album artwork and the track name, number, artist name, album name, release year (and other information) are all downloaded with the track into a single MP3 file. I was in a Telegram group that shared flac music daily and honestly it was awesome, the most streamlined way of sharing music and it covered a lot of basis of the music I liked, unlike another I found that just had very old, unappealing music to me personally. Deezer Downloader Download Music from Deezer in full 320Kbps Quality (For Free) This app allows you to search for and download any songs at the highest quality (320kbps). net/donation. Easy, 320Kbps, flac bot telegram. Free download Björk - Telegram FLAC album. Telegram 13. Telegram from 2525 by E-Stim Audio, released 30 December 2015 music merch FLAC and more. It has drag-and-drop support too. Spotybot Bot. Tamil WAV Songs and Tamil Lossless Songs For Free Download, Latest & Old Movies Uncompressed Music Collection. しゅわりん☆どり~みん 02. Bauhaus Manchester Academy 6th Nov 1998 setlist 1 Double Dare 2 In The Flat Field 3 A God In An Alcove 4 In Fear of Fear 5 Hollow Hills 6 Kick In The. Admin function, /delete is supported. Download Music from Deezer in full 320Kbps Quality (For Free) This app allows you to search for and download any songs at the highest quality (320kbps). Well, telegram channels are a broadcast list where the creatoráof channel post useful content relevant to channel category. flac 17 - Soul Asylum - Homesick. 40 dB Peak : 0. But if you want to spend some extra cash on the music, we will forward every single Euro to the United Nations Refugee Agency - and double that amount!" Release page Download page (Bandcamp) Format: 2 x File, EP, MP3/320 kbps, FLAC, ALAC, AIFF, WAVE Released: 29 Mar 2020 Style: IDM, Minimal. #52 Tamil Flac Songs Channel. We previously looked at method to make Windows 7 Media Player and WMC play FLAC files , but that method takes a bit longer. Where To Download Flac Music Without Torrents, , , Age of Empires II HD Free to try VIEW →. com VA - The Pop Years 1970-1999 (2009) FLAC Music 2 months torlock. Converting CD music to FLAC is easy. FLAC to MP3 - Convert file now View other music file formats: Technical Details: Using FLAC to compress an audio file to approximately 50% of its original size. I was in a Telegram group that shared flac music daily and honestly it was awesome, the most streamlined way of sharing music and it covered a lot of basis of the music I liked, unlike another I found that just had very old, unappealing music to me personally. In addition to playing music, this application can be used to play video. Here are the list of best Telegram channels related to Music. AIDS - Deezer Downloader v1. See hi-res recording links: * Where to Download Free Hi-Res Audio. is VA - The Pop Years 1970-1999 (2009) [FLAC] [DJ. Lossless Music Telegram Channel. Description. The telegram comes with some useful features that are interesting and helpful. 8K views edited 14:49. We are sure these custom curated telegram channels will take your interest in music a notch higher. net/ Download Flac Lossless Music #flac24top #Flac #lossless #music https://dtsmusic. Cerchi la musica in massima qualità e non la trovi? Flac Quality è la migliore alternativa. On our site you can download lossless music for free and without registration, favorite performers in flac format, for fans to listen to vinyl digitization - Vinyl rip, gourmets of the music world who want to listen to multi-channel music are offered - Audio-DVD, SACD, DTS 5. It is intended for educational and private use only, and not as a tool for pirating and distributing music!. How t use it? Also you can post command /findsong and the name of the song and this bot will show you all results of the query in 30 seconds. 966797 CRC32 hash (test run) : CB95DDDD CRC32 hash : CB95DDDD CRC32 hash (skip zero) : 1A0AD8C0 AccurateRip v1 signature : 1682CAF2 AccurateRip v2 signature : 478991A6. Just Google it. Music lossless for lovers of good sound. Tamil FLAC Songs in HD Audio Quality. download for more content related with shraddha kapoor like movies,music(flac,wav,itunes,mp3),music video etc. net has ranked N/A in N/A and 432,563 on the world. The song was also briefly covered by Tenacious D for Dio 's music video for the song "Push". If you have Telegram, you can view and join FLAC Song right away. It also allows you to choose to download music to MP3 or FLAC. FLAC Music Album Free. If you have Telegram, you can view and join AnimeFlacMusic right away. @indianflacsongs. flac" WAVE INDEX 01 00:00:00 TRACK 06 AUDIO TITLE "Ain't It Like A Hollywood Movie" PERFORMER "Silver Convention" ISRC NLG620563595 INDEX 00 05:31:15 FILE "06. Lossless music telegram channel Lossless music telegram channel. Telegram flac music bot. flac 06 - The Korgis - Everybody's Got to Learn Sometime. AURORA - A Different Kind Of. HighMusic Channel. VA - The Pop Years 1970-1999 (2009) FLAC 9 torrent download locations Download Direct VA - The Pop Years 1970-1999 (2009) FLAC could be available for direct download Spónsored Link google. So, It is called best Hindi music telegram channels. @BooksThief ☃️. 259 Followers. All visual content featured on this website may be copyrighted to their respective rightful owners. in FLAC 44kHz/24bit Download. The HD-Audio Challenge is coming to an end. 1 Surround. This site is not affiliated with Telegram. Here are the list of best Telegram channels related to Music. Telegram 13. by wb152025 | Aug 5, 2018 | Music | 0 comments. The telegram comes with some useful features that are interesting and helpful. It is intended for educational and private use only, and not as a tool for pirating and distributing music! Remember that the artists and studios put a lot of work into making music - purchase music to support them. 3 [Download music in FLAC & 320kbps] Apk Full latest is a Music Android app. It removes DRM from Spotify and allows you to download and listen to your favorite songs on other devices and players. Bjork has re-recorded several of her vocals, handing the original backing tracks to a variety of producers and musicians - everyone from Dillinja to the Brodsky Quartet. Tamil Audio song in FLAC format free download by Imran Lajos. Mano, Germano Kuerten - Love in My Way (Torquato Remix) 3. AIDS – Deezer Downloader v1. Dance on the Porch 06. HD-Audio Challenge II: Preliminary Results. Quality music FLAC encoding Sort by albums Most Updated Hit the subscribe @HighMusicIL. How to Play FLAC Audio Files on Mac with VLC. net uses a Commercial suffix and it's server(s) are located in N/A with the IP number 185. The Concept - Truth Telegram flac album download free. net/ Download Flac Lossless Music #flac24top #Flac #lossless #music https://dtsmusic. You might even be one of them. 966797 CRC32 hash (test run) : CB95DDDD CRC32 hash : CB95DDDD CRC32 hash (skip zero) : 1A0AD8C0 AccurateRip v1 signature : 1682CAF2 AccurateRip v2 signature : 478991A6. Bjork has re-recorded several of her vocals, handing the original backing tracks to a variety of producers and musicians - everyone from Dillinja to the Brodsky Quartet. Do you have any suggestion? Click here to submit channel. FLAC stands for Free Lossless Audio Codec, an audio format similar to MP3, butlossless, meaning that audio is compressed in FLAC without any loss in quality. McCreesh: Purcell - King Arthur 1691 (24/96 FLAC) Composer: Henry Purcell Performer: Mhairi Lawson, Carolyn Sampson, Ashley Riches, Roderick Williams, Jeremy Budd, Rowan Pierce, James Way, Anna Dennis Orchestra: Gabrieli Players Conductor: Paul McCreesh Audio CD Number of Discs: 2 Format: FLAC (tracks). Artist: VA Title: Music for Mindfulness, Vol. The Concept - Truth Telegram flac album download free. Discover the most interesting channels about #Music. The channel has a small amount of advertising and quality content, so I recommend to subscribe. Here is the list of best Telegram groups to discuss about Music related topics. flac 08 - Roxy Music - Avalon. flac 17 - Soul Asylum - Homesick. The song was also briefly covered by Tenacious D for Dio 's music video for the song "Push". Curiously, iTunes does not play FLAC files on the Mac, which is why if you're a Mac user looking for a FLAC music player you will have to look elsewhere than iTunes. 5 [ LATEST] Pasok na! may link ka ba? napupunta ako sa telegram para sa. Hand picked books! Channel Terms: t. Provided by Alexa ranking, 24flac. You can use on iPhone, Android Phone, or PC by using the Telegram for Desktop. A: Telegram: 2:56. flac 20 - Soul Asylum - To My Own. Lossless music telegram channel Lossless music telegram channel. Silly Fellows REVIEW #hotmovies, #Comedymovies, #telugumovies, #PillaNeeBuggalu, #ChitraShukla, #SriVasanth, #BheemaneniSrinivasaRao, #KiranReddy, #BharatChowdary, #VivekKuchibotla, Pilla Nee Buggalu Lyrical, Pilla Nee Buggalu song, Pilla Nee Buggalu Saavn, Pilla Nee Buggalu Gaana, Pilla Nee Buggalu Wynk,. High Quality music gives you the best experience of the purest and cleanest form of audio. in FLAC 44kHz/24bit Download. Here are the list of best Telegram channels related to Music. Music lossless for lovers of good sound. in 2004, but it. Feb 28, 2020 · Best Music telegram channel on 2020. Christmas Breakfast 10. Liechtenstein based gothic metal band Elis covered the song on their album Griefshire. Little Women 02. The primary goal of this channel is against any mental or physical stimulation by the Music. gg/uw8kN5E 👥 @WinTenGroup 📢 Other @Redmi5AID_Channel 🎧CK MUSICS🔊. This site is not affiliated with Telegram. 40 dB Peak : 0. Ice Skating 07. FREE DOWNLOAD (SCARICARE GRATIS) - Genere (style) : Hip-Hop/Rap Data di uscita: 29/05/2020 Quality:. This can take a few minutes on slower devices, please be patient. The Bong Druid Of Mammoth Weed Mountain. しゅわりん☆どり~みん [instrumental] 04. I was in a Telegram group that shared flac music daily and honestly it was awesome, the most streamlined way of sharing music and it covered a lot of basis of the music I liked, unlike another I found that just had very old, unappealing music to me personally. One of the biggest FLAC Telegram channels for today. Подписчики, прирост, просмотры за день, репосты и другая аналитика на сайте Telegram Analytics. FLAC album Sebastian Arnold - Telegram EP | Impuls Radio Edit,Telegram Radio Edit,Bits Keep Moving,Impuls Robot Mix,Change A Running System,Telegram Dub Mix download free. Buy USB Drive. VLC also a favorite media player also supports Flac format, Media Player can be installed on personal computers and laptops, It has simple appearance also lightweight which makes this media player an outstanding when compared with other flac players. Electric Octopus "Driving Under The Influence Of Jams" (New Full Album) 2017 (Psychedelic Rock) - Duration: 3:53:24. This is an unofficial Telegram Bot API SDK for PHP. Spotybot Bot. Currently, music is an entertainment section that is receiving the most attention from the community because there are many music products updated continuously daily. ships out within 7 days. These channels can also help you learn more about the music and overall industry. in FLAC 44kHz/24bit Download. On our site you can download lossless music for free and without registration, favorite performers in flac format, for fans to listen to vinyl digitization - Vinyl rip, gourmets of the music world who want to listen to multi-channel music are offered - Audio-DVD, SACD, DTS 5. FLAC stands for Free Lossless Audio Codec, an audio format similar to MP3, butlossless, meaning that audio is compressed in FLAC without any loss in quality. Open the bot on Telegram or Facebook Messenger, then start conversation to try. (альбомы выкладываются в Telegram и ВКонтакте). Fire, Fire 6. Q Do any portable MP3 players support music files in the FLAC format? A While popular players such as the Apple iPod and the Microsoft Zune HD do not naturally play files in the open-source FLAC. 3 [Download music in FLAC & 320kbps] Apk Full latest is a Music Android app. Take a moment to Sign up and gain unlimited access and extra privileges that guests are not entitled to, such as:. right away. Easy, 320Kbps, flac bot telegram. @indianflacsongs. But if you want to spend some extra cash on the music, we will forward every single Euro to the United Nations Refugee Agency - and double that amount!" Release page Download page (Bandcamp) Format: 2 x File, EP, MP3/320 kbps, FLAC, ALAC, AIFF, WAVE Released: 29 Mar 2020 Style: IDM, Minimal. FLAC Song 🎶 • Calvin Harris - This Is What You Came For ft. Bauhaus Manchester Academy 6th Nov 1998 setlist 1 Double Dare 2 In The Flat Field 3 A God In An Alcove 4 In Fear of Fear 5 Hollow Hills 6 Kick In The. flac 08 - Roxy Music - Avalon. Shop for Vinyl, CDs and more from Laleh Pourkarim at the Discogs Marketplace. The Bong Druid Of Mammoth Weed Mountain. The best music bot for Discord. Silly Fellows REVIEW #hotmovies, #Comedymovies, #telugumovies, #PillaNeeBuggalu, #ChitraShukla, #SriVasanth, #BheemaneniSrinivasaRao, #KiranReddy, #BharatChowdary, #VivekKuchibotla, Pilla Nee Buggalu Lyrical, Pilla Nee Buggalu song, Pilla Nee Buggalu Saavn, Pilla Nee Buggalu Gaana, Pilla Nee Buggalu Wynk,. In Dreams 7. 0 and €400K for Creators of Educational Tests. Download Songs from Spotify on your Windows, Android, Mac, and iOS Devices with various methods listed below. when officially telegram launching telegram group link features on their apps? So many users share their own telegram groups list to the public because it helps to increase group participants. Father Comes Home 09. Tamil Audio song in FLAC format free download by Imran Lajos. Telegram is a remix album by Björk. mp3 - 320 kbps / FLAC Tracklist: CD1 01 Intro (Estinzione) 02 Kyte sul tempo 03 Freddy friendly 04 Weekend a Miami 05 Canna e Playstation 06 Mosche depresse - Skit Filippo Giardina 07 Aria 08 Pezzo grosso 09 Easy 10 Buonanotte 11 Outro (Niente di […]. So in this post we discuss some keypoint about telegram group chat. Guys anybody's have kumar sanu tera mera pyar album in flackindly upload Delete. Hay mucha gente que es fanática de la música y exigente con el sonido y quiere tener la colección de artistas musicales que le gusta con el mejor sonido posible, por eso el formato de música Flac es un formato con una gran calidad de sonido, aunque los archivos que están en este formato quedan un poco comprimidos el sonido que tiene el Flac es similar a un cd original. Join Music Channel. Label: MoonSol Music Genre: Tech House, Deep House Quality: 320 kbps. ‎With +2M downloads Loopy is the most downloaded Telegram client on iPhone after Telegram. News of this messenger, and information about updates. Just Google it. Marvelovers 🌟– Canal dedicado a todo lo referente al Universo de Marvel –🌟 ~¡Memes, teorías, encuestas. Музыка качества LOSSLESS (flac, wav, dsd) Музыка разных направлений и времени. Christmas Morning 05. Spotybot is one of the most popular Telegram music bots for today. しゅわりん☆どり~みん [instrumental] 04. Tracklist: 01. Q Do any portable MP3 players support music files in the FLAC format? A While popular players such as the Apple iPod and the Microsoft Zune HD do not naturally play files in the open-source FLAC. The best music bot for Discord. Official site 1gabba - Caine_-_The_Prophecy_(Pro_Mixes)-(TCRECPRO_004)-WEB-FLAC-2019-HS mp3 is Hardstyle Lossless, Web, published 28/06/2020 - 06:13, has working download links, zippy, torrent télécharger descargar herunterladen, Everyday hardstyle & hardcore download mp3 télécharger descargar herunterladen torrent zippy free. Music bots and audio on Telegram The best online music bots and audio chatbots to download music, audio and discover new albums. The Book 08. These channels can also help you learn more about the music and overall industry. Adult Hits, French music, Top 40/pop. right away. Friedrich 16. b+k4023 > v2 > da-p1 > cd Taped by Brian Dlugoz Transferred by Walpole Type sound Venue Jade Year 2005. You will find Songs with lossless Quality. Official site flacattack lossless-music - music in high quality lossless FLAC, APE, WAV only electronic genres like hardcore, gabber, hardstyle, drum and bass, dubstep, techno - easy to browse and download. Air Supply - Lost In Love (1980) Vinyl FLAC (image +. Feb 28, 2020 · Best Music telegram channel on 2020. If you are, you should probably stop using it right now. FLAC stands for Free Lossless Audio Codec and is a standard for playing high-resolution music. You can find Bollywood music and Hindi song on this telegram channel. flac 06 - The Korgis - Everybody's Got to Learn Sometime. 🔥 RACCONTI X ADULTI 🔥 Clickoon Codici Sconto ; Consigliati da Telegram Italia. Telegram; Tuesday, 28 January 2020. FLAC album Sebastian Arnold - Telegram EP | Impuls Radio Edit,Telegram Radio Edit,Bits Keep Moving,Impuls Robot Mix,Change A Running System,Telegram Dub Mix download free. FLAC Frontend is a convenient way for Windows users not used to working with command lines to use the official FLAC tools. Utilizzando i nostri servizi, l'utente accetta le nostre modalità d'uso dei cookie. If you have Telegram, you can view and join AnimeFlacMusic right away. 📣 In our channel, you may download Unlimited Mp3, Flac Lossless & Hi-Res, Wav Music! 📣 Grubumuzdan istek yapabilir, böylece bulamadığınız, albüm ve şarkılara ulaşabilirsiniz. Plumfield 03. flac 07 - Sam Brown - Stop. flac - DOWNLOAD Ei Suzhali. The Beach 04. The Book 08. The best music bot for Discord. (альбомы выкладываются в Telegram и ВКонтакте). You can send messages, photos and videos to people who are in your phone contacts (and have Telegram). Tamil Audio song in FLAC format free download by Imran Lajos. Who You Are. Join Music Channel. Listen to your music, when and where you want. Download Music from Deezer in full 320Kbps Quality For Free. Hay mucha gente que es fanática de la música y exigente con el sonido y quiere tener la colección de artistas musicales que le gusta con el mejor sonido posible, por eso el formato de música Flac es un formato con una gran calidad de sonido, aunque los archivos que están en este formato quedan un poco comprimidos el sonido que tiene el Flac es similar a un cd original. If you have Telegram, you can view and join AnimeFlacMusic right away. 053 [Download Music in Flac & 320kbps] [Latest] James Bond 10/05/2020 43 Comments The files are downloaded with high quality album artwork and the track name, number, artist name, album name, release year (and other information) are all downloaded with the track into a single MP3 file. View Telegram channel's statistics " ️Квиллинг" - @Kwilling. Official site 1gabba - K1_-_The_Floor_(Extended_Mix)-(K1R087)-WEB-FLAC-2020-HS mp3 is Hardstyle Lossless, Web, published 28/06/2020 - 10:16, has working download links, zippy, torrent télécharger descargar herunterladen, Everyday hardstyle & hardcore download mp3 télécharger descargar herunterladen torrent zippy free. flac 03 - FSK SATELLITE - ANSIA NO. Electric Octopus "Driving Under The Influence Of Jams" (New Full Album) 2017 (Psychedelic Rock) - Duration: 3:53:24. There is a site named ChianSenhac. Friedrich 16. Best Telegram channels related Music. Little Women 02. In Dreams 7. Musica - Canali. Once a staple of authoritative communication across the Indian subcontinent, the telegram has lost too much ground to smartphones. Tutta la musica di qualsiasi genere in qualità massima (FLAC 1411 kbps). Подписчики, прирост, просмотры за день, репосты и другая аналитика на сайте Telegram Analytics. Telegram; Tuesday, 28 January 2020. The Mystery 5. You will find Songs with lossless Quality. flac 03 - Black - Wonderful Life. Admin function, /delete is supported. Subscribers, subscribers gained, views per day, forwards and other analytics at the Telegram Analytics website. Once a staple of authoritative communication across the Indian subcontinent, the telegram has lost too much ground to smartphones. Simply place all of your FLAC music into a single folder, choose "Add Folder", and locate the folder that contains your music files. Best Telegram channels related Music. Telegram lista de grupos organizados por temas e idiomas 📣 Limitsiz Mp3, Flac Lossless, Hi-Res, Wav Müzik İndir!📣 Download Unlimited Mp3, Flac Lossless & Hi-Res, Wav Music!📁 Paylaşım Grubumuz: @zippyvibes💠 Reklam İçin @CardinaLe1. A: Telegram: 2:56. Download Music from Deezer in full 320Kbps Quality For Free. On our site you can download lossless music for free and without registration, favorite performers in flac format, for fans to listen to vinyl digitization - Vinyl rip, gourmets of the music world who want to listen to multi-channel. Whether you are on Android or iOS, you can use this method to download high-quality music from Deezer as long as you have Telegram. Vfx telegram channel Vfx telegram channel. Little Women 02. Telegram Channels, groups, bots and stickers that are submitted in the Music category You can add more Telegram media to this category!. Member:- 17k. cue) 24flac. The Sick Mind media music telegram channel is helping to change your troubled mind to happy. Lossless Music Telegram Channel. Flac lossless Music Download - Lossless Flac Music Free 24flac. As ALAC and FLAC are very similar, that's often a deciding factor, are you a MAC or PC person. Theatre in the Attic 14. Discover the most interesting channels about #Music. Where To Download Flac Music Without Torrents, , , Age of Empires II HD Free to try VIEW →. 0 and €400K for Creators of Educational Tests. The Beach 04. DeezLoader For Android v2. Currently, music is an entertainment section that is receiving the most attention from the community because there are many music products updated continuously daily. It is a music format that offers true CD quality and is playable on everything from Sonos to iOS. Avec toujours à sa tête les auteurs-compositeurs Maritza Bossé-Pelchat (Maritza) et François Dufault (The Blue Seeds), la formation plonge ici dans un univers plus rock, mais toujours avec le même penchant pour les ambiances cinématographiques et atmosphériques. Telegram Channels, groups, bots and stickers that are submitted in the Music category You can add more Telegram media to this category!. The HD-Audio Challenge is coming to an end. Learn internet tricks for your android phone, mobile network, and computer. In 2015, Telegram released the most powerful photo editor to be implemented in a messaging app, letting you enhance image quality and add… Jun 4, 2020 400 Million Users, 20,000 Stickers, Quizzes 2. Telegram Group is a way to bring many people together. The Bong Druid Of Mammoth Weed Mountain. Google Music does accept MP3, WMA, FLAC, OGG and unprotected AAC files. I was in a Telegram group that shared flac music daily and honestly it was awesome, the most streamlined way of sharing music and it covered a lot of basis of the music I liked, unlike another I found that just had very old, unappealing music to me personally. VLC also a favorite media player also supports Flac format, Media Player can be installed on personal computers and laptops, It has simple appearance also lightweight which makes this media player an outstanding when compared with other flac players. flac 05 - Lionel Richie - Say You, Say Me. HD-Audio Challenge II: Preliminary Results. Hindi Flac Telegram. Plumfield 03. rscience2005-04-01. Well, you will see some ads on this website, but it not that annoying kind. Telegram by amiina, released 25 November 2016 Includes unlimited streaming via the free Bandcamp app, plus high-quality download in MP3, FLAC and more. Ain't It Like A Hollywood. it - Il punto d'incontro italiano per gli appassionati di informatica e tecnologia. flac" WAVE INDEX 01 00:00:00 TRACK 06 AUDIO TITLE "Ain't It Like A Hollywood Movie" PERFORMER "Silver Convention" ISRC NLG620563595 INDEX 00 05:31:15 FILE "06. Easy, 320Kbps, flac bot telegram. 0 and €400K for Creators of Educational Tests. Telegram Channels for Music Lovers. Telegram Channels. Various searching parameters, including artist, title and formats. Apple Lossless Audio Codec (ALAC) is a proprietary software introduced by Apple Inc. One devotee is threatening a Gandhi-style fast. You can use on iPhone, Android Phone, or PC by using the Telegram for Desktop. The files are downloaded with high quality album artwork and the track name, number, artist name, album name, release year (and other information). FLAC Song 🎶 • Calvin Harris - This Is What You Came For ft. Telegram is a remix album by Björk. If you have Telegram, you can view and join Flac Music Download right away. Download 100 Music Top Worldwide 2019 Flac Hi-fi Unduh Lagu terbaik dunia versi flac gratis Download Best Song 2019 Download Best Song 2019. Marc Bolan was an English singer, songwriter and guitarist whose hit singles, fashion sensibilities and stage presence with T. Currently, music is an entertainment section that is receiving the most attention from the community because there are many music products updated continuously daily. It is a music format that offers true CD quality and is playable on everything from Sonos to iOS. Was originated and improved from szastupov/musicbot. Easy, 320Kbps, flac bot telegram. Well, you will see some ads on this website, but it not that annoying kind. Музыка качества LOSSLESS (flac, wav, dsd) Музыка разных направлений и времени. Bjork has re-recorded several of her vocals, handing the original backing tracks to a variety of producers and musicians - everyone from Dillinja to the Brodsky Quartet. Rex in the early 1970s helped cultivate the glam rock era, though he preferred to call his music Cosmic Rock, and made him one of the most recognisable stars in British music. Telegram Channels for Music Lovers. from the film group on Telegram. Unirse al Grupo de Telegram: MUSIC FLAC , ITUNES ACC M4A , MP3. News of this messenger, and information about updates. Electric Octopus "Driving Under The Influence Of Jams" (New Full Album) 2017 (Psychedelic Rock) - Duration: 3:53:24. 24K Magic Bruno Mars: 5. We previously looked at method to make Windows 7 Media Player and WMC play FLAC files , but that method takes a bit longer. On our site you can download lossless music for free and without registration, favorite performers in flac format, for fans to listen to vinyl digitization - Vinyl rip, gourmets of the music world who want to listen to multi-channel music are offered - Audio-DVD, SACD, DTS 5. Here are the 10 best FLAC Players for Windows 10 that can play FLAC music files. Discover more than 56 million tracks, create your own playlists, and share your favourite tracks with your friends. 053 [Download Music in Flac & 320kbps] [Latest] James Bond 10/05/2020 43 Comments The files are downloaded with high quality album artwork and the track name, number, artist name, album name, release year (and other information) are all downloaded with the track into a single MP3 file. Christmas Breakfast 10. Loves Atomic 10. Where To Download Flac Music Without Torrents, , , Age of Empires II HD Free to try VIEW →. Welcome to the Pleasuredome" is the title track to the 1984 debut album by Frankie Goes to Hollywood. Bluray in theri video songs download music jukebox. Little Women 02. Label: One Little Indian ‎- none Type: CDr, Single, Promo Country: UK Date of released: 2011 Category: Rock Style: Indie Rock. Easy, 320Kbps, flac bot telegram. Lossless Music Telegram Channel. It accepts WAVE, W64, AIFF and RAW files for encoding and outputs FLAC or OGG-FLAC files. Tokyo, Japan. b+k4023 > v2 > da-p1 > cd Taped by Brian Dlugoz Transferred by Walpole Type sound Venue Jade Year 2005. Katy Perry - PRISM (Deluxe) Artist : Katy Perry Album : PRISM (Deluxe. View Telegram channel's statistics "Lossless Music" - @losslesmusic. Download Songs from Spotify on your Windows, Android, Mac, and iOS Devices with various methods listed below. AIFF, ALAC, FLAC, FLAC Studio surround 5. Music lossless for lovers of good sound. In-Stock Music Orders Over $49 SHIP FREE Within The Continental U. 9xrockers Telegram Channel - Download Movies Here. FLAC Song 🎶 • Calvin Harris - This Is What You Came For ft. Jan 04, 2020 · Are you a telegram user? and looking for the best music telegram channel. Download 100 Music Top Worldwide 2019 Flac Hi-fi Unduh Lagu terbaik dunia versi flac gratis Download Best Song 2019 Download Best Song 2019. Versions - Different performances of the song by the same artist rscience2005-04-30. Музыка высокого качества. DREDD April 9, 2020 at 9:15 PM. Telegram скачать для Windows. We update every telegram channel frequently with cool content. Avec toujours à sa tête les auteurs-compositeurs Maritza Bossé-Pelchat (Maritza) et François Dufault (The Blue Seeds), la formation plonge ici dans un univers plus rock, mais toujours avec le même penchant pour les ambiances cinématographiques et atmosphériques. Lossless Music Telegram Channel. パスパレボリューションず☆ [instrumental]. Laurie Kisses Amy 15. Just Google it. FLAC stands for Free Lossless Audio Codec and is a standard for playing high-resolution music. right away. Join the Telegram channel Lossless Audio, here a lot of interesting. Fire, Fire 6. Dan Sartain - Telegram Sam / F Friday download free. We are sure these custom curated telegram channels will take your interest in music a notch higher. Deezer Downloader Download Music from Deezer in full 320Kbps Quality (For Free) This app allows you to search for and download any songs at the highest quality (320kbps). lll Download The Bridge 【 FREE MP3 320kbps & FLAC 】 Download Soundtracks. Electric Octopus "Driving Under The Influence Of Jams" (New Full Album) 2017 (Psychedelic Rock) - Duration: 3:53:24. View Telegram channel's statistics "Lossless Music" - @losslesmusic. dreamchild you can also make telegram channel , so that we can share albums and you can share that albums on. 01 (Compilation, 2020) FLAC: 01 - Shiva; tha Supreme - Calmo. Official site flacattack lossless-music - music in high quality lossless FLAC, APE, WAV only electronic genres like hardcore, gabber, hardstyle, drum and bass, dubstep, techno - easy to browse and download. The channel has a small amount of advertising and quality content, so I recommend to subscribe. Просмотр статистики Telegram-канала "Flac music" - @FlacMix. Step #5 - Using the file explorer, locate and select the FLAC file that you want to transfer from your computer to your Android device. The files are downloaded with high quality album artwork and the track name, number, artist name, album name, release year (and other information). Bluray in theri video songs download music jukebox. Welcome to the Pleasuredome" is the title track to the 1984 debut album by Frankie Goes to Hollywood. But if you want to spend some extra cash on the music, we will forward every single Euro to the United Nations Refugee Agency – and double that amount!” Release page Download page (Bandcamp) Format: 2 x File, EP, MP3/320 kbps, FLAC, ALAC, AIFF, WAVE Released: 29 Mar 2020 Style: IDM, Minimal. flac Lineage cd > eac (secure) > flac Location Meadville, PA Shndiscs 2 Source. Welcome to the Web application of Telegram online messenger. Samsung delivers a music player app to your Galaxy phone without the need to go find and download one. 2K+ Flac Songs Of Telugu, Malayalam, Hindi, Kannada & Many Other Languages will be posted here. Vfx telegram channel Vfx telegram channel. The telegram comes with some useful features that are interesting and helpful. 9xrockers Telegram Channel - Download Movies Here. VLC Media Player. https://api. AIDS - Deezer Downloader APK v1. 05/08/2018 Quality music FLAC encoding Sort by albums. 🔥 RACCONTI X ADULTI 🔥 Clickoon Codici Sconto ; Consigliati da Telegram Italia. Для тех, кто любит слушать музыку без хрипов и просто меломанов, которым интересна музыка качественная по содержанию. Converting CD music to FLAC is easy. I was in a Telegram group that shared flac music daily and honestly it was awesome, the most streamlined way of sharing music and it covered a lot of basis of the music I liked, unlike another I found that just had very old, unappealing music to me personally. in 2004, but it. Filename : /music/Cirque du Soleil - Kurios (2014) [FLAC]/02 - Steampunk Telegram. It is a music format that offers true CD quality and is playable on everything from Sonos to iOS. We previously looked at method to make Windows 7 Media Player and WMC play FLAC files , but that method takes a bit longer. 💯 Tüm dosyalar direk linktir. The Bong Druid Of Mammoth Weed Mountain. Filename : /music/Cirque du Soleil - Kurios (2014) [FLAC]/02 - Steampunk Telegram. With the Telegram channels listed on our website you can be sure to get the latest updates from the music world. 24K Magic Bruno Mars: 5. Fall in love with the classic Age of Empires II experience, now with high definition graphics. Improvements. flac 08 - Roxy Music - Avalon. Hindi Flac Telegram. Telegram lista de grupos organizados por temas e idiomas 📣 Limitsiz Mp3, Flac Lossless, Hi-Res, Wav Müzik İndir!📣 Download Unlimited Mp3, Flac Lossless & Hi-Res, Wav Music!📁 Paylaşım Grubumuz: @zippyvibes💠 Reklam İçin @CardinaLe1. Spotybot is one of the most popular Telegram music bots for today. Q Do any portable MP3 players support music files in the FLAC format? A While popular players such as the Apple iPod and the Microsoft Zune HD do not naturally play files in the open-source FLAC. flac - DOWNLOAD Kodi Parakkudha. lll Download The Bridge 【 FREE MP3 320kbps & FLAC 】 Download Soundtracks. flac 06 - The Korgis - Everybody's Got to Learn Sometime. In Dreams 7. flac 07 - Sam Brown - Stop. Try Flow, only on Deezer. Q Do any portable MP3 players support music files in the FLAC format? A While popular players such as the Apple iPod and the Microsoft Zune HD do not naturally play files in the open-source FLAC. I was in a Telegram group that shared flac music daily and honestly it was awesome, the most streamlined way of sharing music and it covered a lot of basis of the music I liked, unlike another I found that just had very old, unappealing music to me personally. Naturally, such opportunity is given free as all other functions. Father Comes Home 09. 053 [Download Music in Flac & 320kbps] [Latest] James Bond 10/05/2020 43 Comments The files are downloaded with high quality album artwork and the track name, number, artist name, album name, release year (and other information) are all downloaded with the track into a single MP3 file. Well, you will see some ads on this website, but it not that annoying kind. 3 Full Specs Visit Site External Download Site. Christmas Breakfast 10. In this video, I show you how to download music online for free. It accepts WAVE, W64, AIFF and RAW files for encoding and outputs FLAC or OGG-FLAC files. from the film group on Telegram. Telegram Channels for Music Lovers. This bot helps you to find, listen and download any songs from Deezer or Spotify! Just send the Song name or Deezer/Spotify song link, and the bot will find the music for you!. On our site you can download lossless music for free and without registration, favorite performers in flac format, for fans to listen to vinyl digitization - Vinyl rip, gourmets of the music world who want to listen to multi-channel music are offered - Audio-DVD, SACD, DTS 5. net/donation. 2K+ Flac Songs Of Telugu, Malayalam, Hindi, Kannada & Many Other Languages will be posted here. flac 04 - Chris de Burgh - The Lady in Red. Ennoda Kadhal - DOWNLOAD (50MB) Kadhal Piriyaamal - DOWNLOAD(61. Related Music Zimmerman Telegram : Discs 2 Has_mp3 1 Identifier rscience2005-04-30. Currently, music is an entertainment section that is receiving the most attention from the community because there are many music products updated continuously daily. In 2015, Telegram released the most powerful photo editor to be implemented in a messaging app, letting you enhance image quality and add… Jun 4, 2020 400 Million Users, 20,000 Stickers, Quizzes 2. Easy, 320Kbps, flac bot telegram. Feb 28, 2020 · Best Music telegram channel on 2020. Electric Octopus "Driving Under The Influence Of Jams" (New Full Album) 2017 (Psychedelic Rock) - Duration: 3:53:24. 4 Label: Music For Dreams Catalog#: 195081149240 Genre: Electronica / Downtempo, Chill Out Store Date: 12. The Bong Druid Of Mammoth Weed Mountain. Tutta la musica di qualsiasi genere in qualità massima (FLAC 1411 kbps). You can use Spotybot with the inline messages, for example, @spotybot eminem and this bot will show you all tracks of the artist. Label: One Little Indian ‎- none Type: CDr, Single, Promo Country: UK Date of released: 2011 Category: Rock Style: Indie Rock. Mano, Germano Kuerten - Love in My Way (Torquato Remix) 3. flac 03 - Black - Wonderful Life. Provided by Alexa ranking, 24flac. Music plays an inseparable and important role in our lives, in each aspect of our life we listen to the song, either it is any function or you are doing workout; either you are sad or you are happy, in each emotion we need music to express our feeling, music has another level of. The Bong Druid Of Mammoth Weed Mountain. Using a conversion feature built into iTunes, you may not have to re-rip all your CDs again. All Language Flac Songs Channel. FLAC Songs, WAV Songs, Lossless Songs Downloads, Original Audio CD-Rip in 1411kbps Music p hd full songs mobile download, tamil vijay in theri. Subscribe it. Telegram 13. Whether you are on Android or iOS, you can use this method to download high-quality music from Deezer as long as you have Telegram. Music bots and audio on Telegram The best online music bots and audio chatbots to download music, audio and discover new albums. This app allows you to search for and download any songs at the highest quality (320kbps). Bollywood best Hindi song. Here are the list of best Telegram channels related to Music. Apple Lossless Audio Codec (ALAC) is a proprietary software introduced by Apple Inc. There is a site named ChianSenhac. But if you want to spend some extra cash on the music, we will forward every single Euro to the United Nations Refugee Agency – and double that amount!” Release page Download page (Bandcamp) Format: 2 x File, EP, MP3/320 kbps, FLAC, ALAC, AIFF, WAVE Released: 29 Mar 2020 Style: IDM, Minimal. Paramore - After Laughter (2017) - Album [Vinyl] [24/96KhZ] [Flac] iTunestify January 14, 2019 Genres: Alternative, Music Released: 12 May 2017 ℗ 2017 Atlantic Recording Corporation for the United States and WEA International Inc. I was in a Telegram group that shared flac music daily and honestly it was awesome, the most streamlined way of sharing music and it covered a lot of basis of the music I liked, unlike another I found that just had very old, unappealing music to me personally. Exclusive Hot Dj Charts - Picks 22 (131 Tracks) Tech House, Progressive House, Melodic House & Techno, House, Techno Arude, Tantum - Glare (Original Mix) Attica. Loves Atomic 10. rscience2005-04-01. @indianflacsongs. com VA - The Pop Years 1970-1999 (2009) FLAC 2 months zooqle. b+k4023 > v2 > da-p1 > cd Taped by Brian Dlugoz Transferred by Walpole Type sound Venue Jade Year 2005. flac 15 - Soul Asylum - Promises Broken. The HD-Audio Challenge is coming to an end. In Dreams 7. Electric Octopus "Driving Under The Influence Of Jams" (New Full Album) 2017 (Psychedelic Rock) - Duration: 3:53:24. Telegram Media in Music Category. AIDS - Deezer Downloader v1. FREE DOWNLOAD (SCARICARE GRATIS) - Genere (style) : Hip-Hop/Rap Data di uscita: 29/05/2020 Quality:. Tomorrow is May 1 and it's time to wrap phase one of this research project and begin the process of analyzing the raw data. The Book 08. News of this messenger, and information about updates. flac 08 - Roxy Music - Avalon. But if you want to spend some extra cash on the music, we will forward every single Euro to the United Nations Refugee Agency - and double that amount!" Release page Download page (Bandcamp) Format: 2 x File, EP, MP3/320 kbps, FLAC, ALAC, AIFF, WAVE Released: 29 Mar 2020 Style: IDM, Minimal. Music lossless for lovers of good sound. All visual content featured on this website may be copyrighted to their respective rightful owners. Turkey music. Best Telegram Groups about Music. Open the bot on Telegram or Facebook Messenger, then start conversation to try. So in this post we discuss some keypoint about telegram group chat. You can use on iPhone, Android Phone, or PC by using the Telegram for Desktop. View Telegram channel's statistics "Lossless Music" - @losslesmusic. On our site you can download lossless music for free and without registration, favorite performers in flac format, for fans to listen to vinyl digitization - Vinyl rip, gourmets of the music world who want to listen to multi-channel. The Education Of A Wandering Man Jamestown Revival: 4. There is a site named ChianSenhac. This app allows you to search for and download any songs at the highest quality (320kbps). A: Telegram: 2:56. flac - DOWNLOAD Ei Suzhali. The domain 24flac. 052 [Download Music in Flac & 320kbps] [Latest] This app allows you to search for and download any songs at the highest quality (320kbps). Easy, 320Kbps, flac bot telegram. 13 - Soul Asylum - Without a Trace. Air Supply - Lost In Love (1980) Vinyl FLAC (image +. Greatest Hits: 40 Trips Around The Sun Toto: 2. Keys are only generated once. Label: Forward Music Catalog#: FM039LP Genre: Deep House, Progressive House Store Date: 26. Tracklist. @BooksThief ☃️. Method 5: Download Deezer Music to MP3 with Telegram Bot. Amar Prem WAV & FLAC - (CDF 1-20005 - EMI) ~ Dreamchild9999. Hindi Flac Telegram. Explore releases from Laleh Pourkarim at Discogs. Unlike any other mp3 downloader website, the one I am about to show you allows you to download 320kbps or 1441kbps free loss music. Plumfield 03. Here you will find a list of telegram channels, we searched for the best ones in each category: News, stickers, fun like gifs and viral stuff, channels, groups and more. flac 17 - Soul Asylum - Homesick. 📀FLAC MUSIC AVAILABLE💿 🔮 @Sunshine_14 🔮 @My_Shine 🔮 @HW_StiGif. Vfx telegram channel Vfx telegram channel. 4 Label: Music For Dreams Catalog#: 195081149240 Genre: Electronica / Downtempo, Chill Out Store Date: 12. Subscribers, subscribers gained, views per day, forwards and other analytics at the Telegram Analytics website. At the beginning of the music video, Jack Black and Kyle Gass are shown standing on a sidewalk busking and singing "Heaven and Hell" with alternate lyrics. Found 15 Music Bots for Telegram. A channel is displayed in a general contact list. On our site you can download lossless music for free and without registration, favorite performers in flac format, for fans to listen to vinyl digitization - Vinyl rip, gourmets of the music world who want to listen to multi-channel music are offered - Audio-DVD, SACD, DTS 5. Telegram flac music bot. SMLoadr is a program for downloading music from streaming music services. Turkey music. Подписчики, прирост, просмотры за день, репосты и другая аналитика на сайте Telegram Analytics. Music lossless for lovers of good sound. @BooksThief ☃️. Music plays an inseparable and important role in our lives, in each aspect of our life we listen to the song, either it is any function or you are doing workout; either you are sad or you are happy, in each emotion we need music to express our feeling, music has another level of. This pair is more or less the same recipe as the previous model but claims to provide. Utilizzando i nostri servizi, l'utente accetta le nostre modalità d'uso dei cookie. Simply place all of your FLAC music into a single folder, choose "Add Folder", and locate the folder that contains your music files. Spotybot Bot. Marc Bolan was an English singer, songwriter and guitarist whose hit singles, fashion sensibilities and stage presence with T. Free download Björk - Telegram FLAC album. flac" WAVE INDEX 01 00:00:00 TRACK 06 AUDIO TITLE "Ain't It Like A Hollywood Movie" PERFORMER "Silver Convention" ISRC NLG620563595 INDEX 00 05:31:15 FILE "06. High Quality music gives you the best experience of the purest and cleanest form of audio. Try Flow, only on Deezer. flac Lineage cd > eac (secure) > flac Location Meadville, PA Shndiscs 2 Source. If you’re a music fan who likes Flac and Ogg files, you know WMP won’t play by them default. 13 - Soul Asylum - Without a Trace. Music connoisseurs relish HD and hi-res audio, but scouring the web for the best streaming and downloading sites can be a pain. right away. Official site 1gabba - K1_-_The_Floor_(Extended_Mix)-(K1R087)-WEB-FLAC-2020-HS mp3 is Hardstyle Lossless, Web, published 28/06/2020 - 10:16, has working download links, zippy, torrent télécharger descargar herunterladen, Everyday hardstyle & hardcore download mp3 télécharger descargar herunterladen torrent zippy free. It’s superfast, simple and free. Rihanna 🎙 • #CalvinHarris #Rihanna 🔷 »»» @FLACSong ««« 🔷 10. パスパレボリューションず☆ 03. Welcome to the Pleasuredome" is the title track to the 1984 debut album by Frankie Goes to Hollywood. We update every telegram channel frequently with cool content. (альбомы выкладываются в Telegram и ВКонтакте). Artist: VA Title: Music for Mindfulness, Vol. it - Il punto d'incontro italiano per gli appassionati di informatica e tecnologia. Musica - Canali. Best Telegram chat groups to discuss on Music related topics. @BooksThief ☃️. Download VA The Pop Years 1970-1999 (2009) [FLAC] torrent for free, Downloads via Magnet Link or FREE Movies online to Watch in LimeTorrents. Guys anybody's have kumar sanu tera mera pyar album in flackindly upload Delete. Telegram from 2525 by E-Stim Audio, released 30 December 2015 music merch FLAC and more. flac 03 - Black - Wonderful Life.